Список форумов Kage Project Kage Project
 
  РегистрацияРегистрация  ВходВход
  Архив субтитровАрхив субтитров  ПоискПоиск  ЧаВоЧаВо  ПользователиПользователи
 Войти и проверить личные сообщенияВойти и проверить личные сообщения

(+) Чем вытащить сабы из .m4v?
На страницу 1, 2  След.
 
Начать новую тему   Ответить на тему    Список форумов Kage Project -> Техническая поддержка
Предыдущая тема :: Следующая тема 
Автор Сообщение
торрент иваниваныч

Переводы



Зарегистрирован: 29.12.2011
Сообщения: 265
СообщениеДобавлено: Пн Авг 08, 2016 23:13 pm   Заголовок сообщения: (+) Чем вытащить сабы из .m4v? Ответить с цитатой

Сразу говорю, что не помогло: Aegisub, mp4box, mkvmerge, Handbrake.

Последний раз редактировалось: Ср Авг 10, 2016 11:08 am

К началу
Посмотреть профиль Отправить личное сообщение Добавить в игнор-лист Посетить сайт автора
Rik



Зарегистрирован: 31.10.2003
Сообщения: 107
Откуда: Мурманск
СообщениеДобавлено: Вт Авг 09, 2016 0:00 am   Ответить с цитатой

Там софтсаб? Если в MPC-HC нажать Shift-F10 то в окне свойств есть трек Subtitle? или только Audio/Video?

К началу
Посмотреть профиль Отправить личное сообщение Добавить в игнор-лист
торрент иваниваныч

Переводы



Зарегистрирован: 29.12.2011
Сообщения: 265
СообщениеДобавлено: Вт Авг 09, 2016 0:09 am   Ответить с цитатой

General
Complete name : Appleseed.Alpha.(SD).(pk).m4v
Format : MPEG-4
Codec ID : M4V
File size : 1.64 GiB
Duration : 1h 33mn
Overall bit rate mode : Variable
Overall bit rate : 2 523 Kbps
Movie name : Appleseed: Alpha
Performer : Shinji Aramaki
Director : Синдзи Арамаки
Actor : Люси Кристиан / Дэвид Матранга / Элизабет Банч / Вендел Кэлверт / Адам Гиббс / Крис Хатчинсон / Брина Паленсиа
Screenplay by : Марианн Кравчик / Масамунэ Сиро
Producer : Джозеф Чоу / Джои Гобео / Эйчи Камагата
Production studio : Solo Digital Arts, 6 Films, Lucent Pictures Entertainment
Genre : Action & Adventure
ContentType : Short Film
Description : Действие посвящено боевой биографии Дюнан и Бриарея до попадания в Олимп.
Recorded date : UTC 2014-07-22 08:00:00
Encoded date : UTC 2014-09-01 08:03:52
Tagged date : UTC 2014-09-01 08:07:42
Cover : Yes
Rating : None
Title/Sort : Appleseed: Alpha
LongDescription : На основе комиксов, от создателя Призрак в доспехах, молодой солдат Дюнан и киборг Бриарей, пережив третью мировую войну, путешествуют по апокалиптическому Нью-Йорку, в поисках легендарного города Олимпа, будущего оплота человечества.
AppleStoreCatalogID : 886930644
Vendor : Apple:vendor_id:2014-837990
ContentRating : mpaa|PG-13|300|

Video #1
ID : 1
Format : AVC
Format/Info : Advanced Video Codec
Format profile : High@L4
Format settings, CABAC : Yes
Format settings, ReFrames : 9 frames
Codec ID : avc1
Codec ID/Info : Advanced Video Coding
Duration : 1h 33mn
Bit rate : 2 200 Kbps
Width : 1 024 pixels
Height : 576 pixels
Display aspect ratio : 16:9
Frame rate mode : Variable
Frame rate : 23.976 fps
Minimum frame rate : 23.810 fps
Maximum frame rate : 24.272 fps
Color space : YUV
Chroma subsampling : 4:2:0
Bit depth : 8 bits
Scan type : Progressive
Bits/(Pixel*Frame) : 0.156
Stream size : 1.43 GiB (87%)
Title : Main Program
Writing library : x264 core 130 r2273 b3065e6
Encoding settings : cabac=1 / ref=9 / deblock=1:0:0 / analyse=0x3:0x113 / me=umh / subme=9 / psy=1 / psy_rd=1.00:0.00 / mixed_ref=1 / me_range=32 / chroma_me=1 / trellis=1 / 8x8dct=1 / cqm=0 / deadzone=21,11 / fast_pskip=1 / chroma_qp_offset=-2 / threads=12 / lookahead_threads=1 / sliced_threads=0 / nr=0 / decimate=1 / interlaced=0 / bluray_compat=0 / constrained_intra=0 / bframes=6 / b_pyramid=2 / b_adapt=2 / b_bias=0 / direct=1 / weightb=1 / open_gop=0 / weightp=2 / keyint=240 / keyint_min=24 / scenecut=40 / intra_refresh=0 / rc_lookahead=40 / rc=2pass / mbtree=1 / bitrate=2200 / ratetol=1.0 / qcomp=0.60 / qpmin=0 / qpmax=69 / qpstep=4 / cplxblur=20.0 / qblur=0.5 / ip_ratio=1.40 / aq=1:1.00
Language : English
Encoded date : UTC 2014-09-01 08:03:52
Tagged date : UTC 2014-09-01 08:04:30
Color range : Limited
Color primaries : BT.709
Transfer characteristics : BT.709
Matrix coefficients : BT.709

Video #2
ID : 7
Format : JPEG
Codec ID : jpeg
Duration : 1h 33mn
Bit rate mode : Variable
Bit rate : 929 bps
Width : 640 pixels
Height : 360 pixels
Display aspect ratio : 16:9
Frame rate mode : Variable
Frame rate : 0.003 fps
Minimum frame rate : 0.002 fps
Maximum frame rate : 0.004 fps
Color space : YUV
Chroma subsampling : 4:2:0
Bit depth : 8 bits
Compression mode : Lossy
Bits/(Pixel*Frame) : 1.344
Stream size : 605 KiB (0%)
Language : English
Encoded date : UTC 2014-09-01 08:04:33
Tagged date : UTC 2014-09-01 08:04:34

Audio #1
ID : 2
Format : AAC
Format/Info : Advanced Audio Codec
Format profile : LC
Codec ID : 40
Duration : 1h 33mn
Bit rate mode : Variable
Bit rate : 157 Kbps
Maximum bit rate : 247 Kbps
Channel(s) : 2 channels
Channel positions : Front: L R
Sampling rate : 48.0 KHz
Compression mode : Lossy
Stream size : 105 MiB (6%)
Title : Russian Stereo
Language : Russian
Encoded date : UTC 2014-09-01 08:03:52
Tagged date : UTC 2014-09-01 08:04:01

Audio #2
ID : 3
Format : AAC
Format/Info : Advanced Audio Codec
Format profile : LC
Codec ID : 40
Duration : 1h 33mn
Bit rate mode : Variable
Bit rate : 158 Kbps
Maximum bit rate : 274 Kbps
Channel(s) : 2 channels
Channel positions : Front: L R
Sampling rate : 48.0 KHz
Compression mode : Lossy
Stream size : 105 MiB (6%)
Title : English Stereo
Language : English
Encoded date : UTC 2014-09-01 08:03:52
Tagged date : UTC 2014-09-01 08:04:01

Text #1
ID : 4
Format : Timed Text
Muxing mode : sbtl
Codec ID : tx3g
Duration : 1h 33mn
Bit rate mode : Variable
Bit rate : 82 bps
Stream size : 56.0 KiB (0%)
Title : Russian full
Language : Russian
Encoded date : UTC 2014-09-01 08:03:52
Tagged date : UTC 2014-09-01 08:03:52

Text #2
ID : 5
Format : Timed Text
Muxing mode : sbtl
Codec ID : tx3g
Duration : 1h 33mn
Bit rate mode : Variable
Bit rate : 52 bps
Stream size : 35.2 KiB (0%)
Title : English full
Language : English
Encoded date : UTC 2014-09-01 08:03:52
Tagged date : UTC 2014-09-01 08:03:52

Menu #1
00:00:00.000 : Chapter 1
00:05:09.809 : Chapter 2
00:09:07.796 : Chapter 3
00:14:45.967 : Chapter 4
00:19:39.260 : Chapter 5
00:29:15.753 : Chapter 6
00:33:53.989 : Chapter 7
00:38:17.419 : Chapter 8
00:44:42.929 : Chapter 9
00:51:24.080 : Chapter 10
00:56:58.080 : Chapter 11
01:02:53.435 : Chapter 12
01:08:48.498 : Chapter 13
01:13:17.517 : Chapter 14
01:19:03.029 : Chapter 15
01:24:49.333 : Chapter 16

Menu #2
ID : 6
Codec ID : text
Duration : 1h 33mn
Language : English
Encoded date : UTC 2014-09-01 08:04:30
Tagged date : UTC 2014-09-01 08:04:30
00:00:00.000 : Chapter 1
00:05:09.809 : Chapter 2
00:09:07.796 : Chapter 3
00:14:45.967 : Chapter 4
00:19:39.260 : Chapter 5
00:29:15.753 : Chapter 6
00:33:53.989 : Chapter 7
00:38:17.419 : Chapter 8
00:44:42.929 : Chapter 9
00:51:24.080 : Chapter 10
00:56:58.080 : Chapter 11
01:02:53.435 : Chapter 12
01:08:48.498 : Chapter 13
01:13:17.517 : Chapter 14
01:19:03.029 : Chapter 15
01:24:49.333 : Chapter 16
Bit rate mode : VBR

Тут что, тэга спойлер нет?

К началу
Посмотреть профиль Отправить личное сообщение Добавить в игнор-лист Посетить сайт автора
ojiisan



Зарегистрирован: 13.04.2015
Сообщения: 1644
Откуда: UCCUSS
СообщениеДобавлено: Вт Авг 09, 2016 0:14 am   Ответить с цитатой

Цитата:
Чем вытащить?
Yamb.
Цитата:
Тут что, тэга спойлер нет?
Нет.

К началу
Посмотреть профиль Отправить личное сообщение Добавить в игнор-лист Посетить сайт автора
торрент иваниваныч

Переводы



Зарегистрирован: 29.12.2011
Сообщения: 265
СообщениеДобавлено: Вт Авг 09, 2016 10:28 am   Ответить с цитатой

Yamb вылетает при открытии файла.

К началу
Посмотреть профиль Отправить личное сообщение Добавить в игнор-лист Посетить сайт автора
ojiisan



Зарегистрирован: 13.04.2015
Сообщения: 1644
Откуда: UCCUSS
СообщениеДобавлено: Вт Авг 09, 2016 11:23 am   Ответить с цитатой

торрент иваниваныч
Залейте видео на мегу или dropmefiles и оставьте тут ссылку - ковырну.

К началу
Посмотреть профиль Отправить личное сообщение Добавить в игнор-лист Посетить сайт автора
Zool

Переводы



Зарегистрирован: 02.06.2013
Сообщения: 1961
Откуда: Казань
СообщениеДобавлено: Вт Авг 09, 2016 13:14 pm   Ответить с цитатой

Пробовал мп4боксом под линуксом?
Он муксит/демуксит странные ютубовидео, с которыми под виндой фиг чё сделаешь.

К началу
Посмотреть профиль Отправить личное сообщение Добавить в игнор-лист
торрент иваниваныч

Переводы



Зарегистрирован: 29.12.2011
Сообщения: 265
СообщениеДобавлено: Вт Авг 09, 2016 14:22 pm   Ответить с цитатой

ojiisan
https://yadi.sk/i/chvnGPedu4tms

Zool
Нет у меня линукса.

К началу
Посмотреть профиль Отправить личное сообщение Добавить в игнор-лист Посетить сайт автора
Zool

Переводы



Зарегистрирован: 02.06.2013
Сообщения: 1961
Откуда: Казань
СообщениеДобавлено: Вт Авг 09, 2016 14:53 pm   Ответить с цитатой

торрент иваниваныч
И зря нет.



https://yadi.sk/d/Q4ZR9wT1u4xmu

К началу
Посмотреть профиль Отправить личное сообщение Добавить в игнор-лист
ojiisan



Зарегистрирован: 13.04.2015
Сообщения: 1644
Откуда: UCCUSS
СообщениеДобавлено: Вт Авг 09, 2016 14:57 pm   Ответить с цитатой

Забирайте субтитры.
Английские и русские. Ямб извлёк их без проблем. В винде.


Appleseed.Alpha.(SD).(pk).rar  [62.3 KB] [Загрузок: 150]
К началу
Посмотреть профиль Отправить личное сообщение Добавить в игнор-лист Посетить сайт автора
Zool

Переводы



Зарегистрирован: 02.06.2013
Сообщения: 1961
Откуда: Казань
СообщениеДобавлено: Вт Авг 09, 2016 15:07 pm   Ответить с цитатой

Ну, значит вообще у него что-то не так на компе.

К началу
Посмотреть профиль Отправить личное сообщение Добавить в игнор-лист
торрент иваниваныч

Переводы



Зарегистрирован: 29.12.2011
Сообщения: 265
СообщениеДобавлено: Вт Авг 09, 2016 16:31 pm   Ответить с цитатой

ojiisan
Спасибо. Какая у вас версия? У меня оказывается была версия аж с 2009 года. Обновил до Yamb-2.1.0.0_beta2, не помогло.

К началу
Посмотреть профиль Отправить личное сообщение Добавить в игнор-лист Посетить сайт автора
ojiisan



Зарегистрирован: 13.04.2015
Сообщения: 1644
Откуда: UCCUSS
СообщениеДобавлено: Вт Авг 09, 2016 17:26 pm   Ответить с цитатой

У меня Yamb-2.1.0.0_beta2.
Возможно, дело в пути к видеофайлу (недопустимые символы). Переместите его в корень диска и попробуйте открыть ямбом снова.

К началу
Посмотреть профиль Отправить личное сообщение Добавить в игнор-лист Посетить сайт автора
торрент иваниваныч

Переводы



Зарегистрирован: 29.12.2011
Сообщения: 265
СообщениеДобавлено: Ср Авг 10, 2016 11:08 am   Ответить с цитатой

ojiisan
Из корня тоже не работает. Причём видео/аудио потоки извлекаются нормально. Что-то у меня сглючило.

К началу
Посмотреть профиль Отправить личное сообщение Добавить в игнор-лист Посетить сайт автора
tengri

Переводы



Зарегистрирован: 01.09.2014
Сообщения: 535
СообщениеДобавлено: Пт Авг 12, 2016 0:22 am   Ответить с цитатой

торрент иваниваныч
Цитата:
Text #1
...
Codec ID : tx3g

Сталкивался с таким. Вытаскивается ffmpeg'ом.

К началу
Посмотреть профиль Отправить личное сообщение Добавить в игнор-лист
Показать сообщения:   
Начать новую тему   Ответить на тему    Список форумов Kage Project -> Техническая поддержка Часовой пояс: GMT + 3
На страницу 1, 2  След.
Страница 1 из 2
 
Перейти:  
Вы не можете начинать темы
Вы не можете отвечать на сообщения
Вы не можете редактировать свои сообщения
Вы не можете удалять свои сообщения
Вы не можете голосовать в опросах
Вы не можете прикреплять файлы к сообщениям
Вы можете скачивать файлы, прикрепленные к сообщениям